Mr Robot S01 1080p WEB-DL Google Links

Moderators: Rasa, trixie


Topic Author
macha_ikhwan
meh
Posts: 6

Mr Robot S01 1080p WEB-DL Google Links

Post#1 » Mon Aug 17, 2015 9:21 am

Mr Robot S01 1080p WEB-DL.DD5.1.H.264

Image

Genre : Crime|Drama
Status : Airing

IMDB LINK:http://www.imdb.com/title/tt4158110/

IMDB RATING : 9.1

Follows a young computer programmer (Malek) who suffers from social anxiety disorder and forms connections through hacking. He's recruited by a mysterious anarchist, who calls himself Mr. Robot.

Creator: Sam Esmail
Stars: Rami Malek, Carly Chaikin, Portia Doubleday


eps1.0_hellofriend.mov : http://adf.ly/1MrXCr

Image

Code: Select all

General
Unique ID                      : 231719143139863052470668315976871101225 (0xAE537BD03AC69ECB80C3A4611036C329)
Format                         : Matroska
Format version                 : Version 4 / Version 2
File size                      : 2.39 GiB
Duration                       : 1h 4mn
Overall bit rate               : 5 266 Kbps

Video
ID                             : 1
Format                         : AVC
Format/Info                    : Advanced Video Codec
Format profile                 : [email protected]
Format settings, CABAC         : Yes
Format settings, ReFrames      : 4 frames
Codec ID                       : V_MPEG4/ISO/AVC
Duration                       : 1h 4mn
Bit rate                       : 4 777 Kbps
Width                          : 1 920 pixels
Height                         : 1 080 pixels
Display aspect ratio           : 16:9
Frame rate mode                : Constant
Frame rate                     : 23.976 fps
Color space                    : YUV
Chroma subsampling             : 4:2:0
Bit depth                      : 8 bits
Scan type                      : Progressive
Bits/(Pixel*Frame)             : 0.096
Stream size                    : 2.16 GiB (91%)

Audio
ID                             : 2
Format                         : AC-3
Format/Info                    : Audio Coding 3
Mode extension                 : CM (complete main)
Format settings, Endianness    : Big
Codec ID                       : A_AC3
Duration                       : 1h 4mn
Bit rate mode                  : Constant
Bit rate                       : 384 Kbps
Channel count                  : 6 channels
Channel positions              : Front: L C R, Side: L R, LFE
Sampling rate                  : 48.0 KHz
Bit depth                      : 16 bits
Compression mode               : Lossy
Stream size                    : 178 MiB (7%)
Title                          : Surround DD5.1
Language                       : English
Default                        : Yes
Forced                         : No


eps1.1_ones-and-zer0es.mpeg :http://adf.ly/1MriuI

Image

Code: Select all

General
Unique ID                      : 246707490675717823491761784340186920672 (0xB99A2266B540A1F9BD5D37032677F6E0)
Format                         : Matroska
Format version                 : Version 4 / Version 2
File size                      : 1.79 GiB
Duration                       : 47mn 10s
Overall bit rate               : 5 422 Kbps
Encoded date                   : UTC 2015-07-02 07:24:13
Writing application            : mkvmerge v6.6.0 ('The Edge Of The In Between') built on Dec  1 2013 17:55:00
Writing library                : libebml v1.3.0 + libmatroska v1.4.1
Attachment                     : Yes

Video
ID                             : 1
Format                         : AVC
Format/Info                    : Advanced Video Codec
Format profile                 : [email protected]
Format settings, CABAC         : Yes
Format settings, ReFrames      : 4 frames
Codec ID                       : V_MPEG4/ISO/AVC
Duration                       : 47mn 10s
Bit rate                       : 4 930 Kbps
Width                          : 1 920 pixels
Height                         : 1 080 pixels
Display aspect ratio           : 16:9
Frame rate mode                : Constant
Frame rate                     : 23.976 fps
Color space                    : YUV
Chroma subsampling             : 4:2:0
Bit depth                      : 8 bits
Scan type                      : Progressive
Bits/(Pixel*Frame)             : 0.099
Stream size                    : 1.62 GiB (91%)
Title                          : Mr.Robot.S01E02.Ones.and.Zer0es.mpeg.1080p.WEB-DL.DD5.1.H.264-RARBG
Language                       : English
Default                        : Yes
Forced                         : No
Color primaries                : BT.709
Transfer characteristics       : BT.709
Matrix coefficients            : BT.709

Audio
ID                             : 2
Format                         : AC-3
Format/Info                    : Audio Coding 3
Mode extension                 : CM (complete main)
Format settings, Endianness    : Big
Codec ID                       : A_AC3
Duration                       : 47mn 10s
Bit rate mode                  : Constant
Bit rate                       : 384 Kbps
Channel count                  : 6 channels
Channel positions              : Front: L C R, Side: L R, LFE
Sampling rate                  : 48.0 KHz
Bit depth                      : 16 bits
Compression mode               : Lossy
Stream size                    : 130 MiB (7%)
Title                          : Mr.Robot.S01E02.Ones.and.Zer0es.mpeg.1080p.WEB-DL.DD5.1.H.264-RARBG
Language                       : English
Default                        : Yes
Forced                         : No

Text
ID                             : 3
Format                         : UTF-8
Codec ID                       : S_TEXT/UTF8
Codec ID/Info                  : UTF-8 Plain Text
Title                          : English
Language                       : English
Default                        : No
Forced                         : No



eps1.2_d3bug.mkv:http://adf.ly/1Mrkg3

Image

Code: Select all

General
Unique ID                      : 210231584160060148516849030282897737955 (0x9E29215C95B7F19B8959A25815BB48E3)
Format                         : Matroska
Format version                 : Version 4 / Version 2
File size                      : 1.65 GiB
Duration                       : 45mn 10s
Overall bit rate               : 5 237 Kbps
Encoded date                   : UTC 2015-07-09 07:21:54
Writing application            : mkvmerge v6.6.0 ('The Edge Of The In Between') built on Dec  1 2013 17:55:00
Writing library                : libebml v1.3.0 + libmatroska v1.4.1
Attachment                     : Yes

Video
ID                             : 1
Format                         : AVC
Format/Info                    : Advanced Video Codec
Format profile                 : [email protected]
Format settings, CABAC         : Yes
Format settings, ReFrames      : 4 frames
Codec ID                       : V_MPEG4/ISO/AVC
Duration                       : 45mn 10s
Bit rate                       : 4 749 Kbps
Width                          : 1 920 pixels
Height                         : 1 080 pixels
Display aspect ratio           : 16:9
Frame rate mode                : Constant
Frame rate                     : 23.976 fps
Color space                    : YUV
Chroma subsampling             : 4:2:0
Bit depth                      : 8 bits
Scan type                      : Progressive
Bits/(Pixel*Frame)             : 0.096
Stream size                    : 1.50 GiB (91%)
Title                          : Mr.Robot.S01E03.d3bug.mkv.1080p.WEB-DL.DD5.1.H.264-RARBG
Language                       : English
Default                        : Yes
Forced                         : No
Color primaries                : BT.709
Transfer characteristics       : BT.709
Matrix coefficients            : BT.709

Audio
ID                             : 2
Format                         : AC-3
Format/Info                    : Audio Coding 3
Mode extension                 : CM (complete main)
Format settings, Endianness    : Big
Codec ID                       : A_AC3
Duration                       : 45mn 10s
Bit rate mode                  : Constant
Bit rate                       : 384 Kbps
Channel count                  : 6 channels
Channel positions              : Front: L C R, Side: L R, LFE
Sampling rate                  : 48.0 KHz
Bit depth                      : 16 bits
Compression mode               : Lossy
Stream size                    : 124 MiB (7%)
Title                          : Mr.Robot.S01E03.d3bug.mkv.1080p.WEB-DL.DD5.1.H.264-RARBG
Language                       : English
Default                        : Yes
Forced                         : No

Text
ID                             : 3
Format                         : UTF-8
Codec ID                       : S_TEXT/UTF8
Codec ID/Info                  : UTF-8 Plain Text
Title                          : English
Language                       : English
Default                        : No
Forced                         : No



eps1.3_da3m0ns.mp4 : http://adf.ly/1Mrl2t

Image

Code: Select all

General
Unique ID                      : 179836039242712601269616797559916881081 (0x874B294B5579552BBF89306E42E064B9)
Format                         : Matroska
Format version                 : Version 4 / Version 2
File size                      : 1.68 GiB
Duration                       : 45mn 9s
Overall bit rate               : 5 315 Kbps
Encoded date                   : UTC 2015-07-16 07:30:08
Writing application            : mkvmerge v6.6.0 ('The Edge Of The In Between') built on Dec  1 2013 17:55:00
Writing library                : libebml v1.3.0 + libmatroska v1.4.1
Attachment                     : Yes

Video
ID                             : 1
Format                         : AVC
Format/Info                    : Advanced Video Codec
Format profile                 : [email protected]
Format settings, CABAC         : Yes
Format settings, ReFrames      : 4 frames
Codec ID                       : V_MPEG4/ISO/AVC
Duration                       : 45mn 9s
Bit rate                       : 4 825 Kbps
Width                          : 1 920 pixels
Height                         : 1 080 pixels
Display aspect ratio           : 16:9
Frame rate mode                : Constant
Frame rate                     : 23.976 fps
Color space                    : YUV
Chroma subsampling             : 4:2:0
Bit depth                      : 8 bits
Scan type                      : Progressive
Bits/(Pixel*Frame)             : 0.097
Stream size                    : 1.52 GiB (91%)
Title                          : Mr.Robot.S01E04.da3m0ns.mp4.1080p.WEB-DL.DD5.1.H.264-RARBG
Language                       : English
Default                        : Yes
Forced                         : No
Color primaries                : BT.709
Transfer characteristics       : BT.709
Matrix coefficients            : BT.709

Audio
ID                             : 2
Format                         : AC-3
Format/Info                    : Audio Coding 3
Mode extension                 : CM (complete main)
Format settings, Endianness    : Big
Codec ID                       : A_AC3
Duration                       : 45mn 9s
Bit rate mode                  : Constant
Bit rate                       : 384 Kbps
Channel count                  : 6 channels
Channel positions              : Front: L C R, Side: L R, LFE
Sampling rate                  : 48.0 KHz
Bit depth                      : 16 bits
Compression mode               : Lossy
Stream size                    : 124 MiB (7%)
Title                          : Mr.Robot.S01E04.da3m0ns.mp4.1080p.WEB-DL.DD5.1.H.264-RARBG
Language                       : English
Default                        : Yes
Forced                         : No

Text
ID                             : 3
Format                         : UTF-8
Codec ID                       : S_TEXT/UTF8
Codec ID/Info                  : UTF-8 Plain Text
Title                          : English
Language                       : English
Default                        : No
Forced                         : No



eps1.4_3xpl0its.wmv:http://adf.ly/1MrmIS

Image

Code: Select all

General
Unique ID                      : 251354386704710668539845765043817810394 (0xBD1918106F352A87BDDF75A8E74009DA)
Format                         : Matroska
Format version                 : Version 4 / Version 2
File size                      : 1.64 GiB
Duration                       : 44mn 51s
Overall bit rate               : 5 222 Kbps
Encoded date                   : UTC 2015-07-23 18:20:06
Writing application            : mkvmerge v6.6.0 ('The Edge Of The In Between') built on Dec  1 2013 17:55:00
Writing library                : libebml v1.3.0 + libmatroska v1.4.1
Attachment                     : Yes

Video
ID                             : 1
Format                         : AVC
Format/Info                    : Advanced Video Codec
Format profile                 : [email protected]
Format settings, CABAC         : Yes
Format settings, ReFrames      : 4 frames
Codec ID                       : V_MPEG4/ISO/AVC
Duration                       : 44mn 51s
Bit rate                       : 4 734 Kbps
Width                          : 1 920 pixels
Height                         : 1 080 pixels
Display aspect ratio           : 16:9
Frame rate mode                : Constant
Frame rate                     : 23.976 fps
Color space                    : YUV
Chroma subsampling             : 4:2:0
Bit depth                      : 8 bits
Scan type                      : Progressive
Bits/(Pixel*Frame)             : 0.095
Stream size                    : 1.48 GiB (91%)
Title                          : Mr.Robot.S01E05.3xpl0its.wmv.1080p.WEB-DL.DD5.1.H.264-RARBG
Language                       : English
Default                        : Yes
Forced                         : No
Color primaries                : BT.709
Transfer characteristics       : BT.709
Matrix coefficients            : BT.709

Audio
ID                             : 2
Format                         : AC-3
Format/Info                    : Audio Coding 3
Mode extension                 : CM (complete main)
Format settings, Endianness    : Big
Codec ID                       : A_AC3
Duration                       : 44mn 51s
Bit rate mode                  : Constant
Bit rate                       : 384 Kbps
Channel count                  : 6 channels
Channel positions              : Front: L C R, Side: L R, LFE
Sampling rate                  : 48.0 KHz
Bit depth                      : 16 bits
Compression mode               : Lossy
Stream size                    : 123 MiB (7%)
Title                          : Mr.Robot.S01E05.3xpl0its.wmv.1080p.WEB-DL.DD5.1.H.264-RARBG
Language                       : English
Default                        : Yes
Forced                         : No

Text
ID                             : 3
Format                         : UTF-8
Codec ID                       : S_TEXT/UTF8
Codec ID/Info                  : UTF-8 Plain Text
Title                          : English
Language                       : English
Default                        : No
Forced                         : No



eps1.5_br4ve-trave1er.asf :http://adf.ly/1MrndO

Image

Code: Select all

General
Unique ID                      : 193073180089353889832408880995736757624 (0x91408AB9E830C6F2B65D319231EC2578)
Format                         : Matroska
Format version                 : Version 4 / Version 2
File size                      : 1.73 GiB
Duration                       : 44mn 39s
Overall bit rate               : 5 540 Kbps
Encoded date                   : UTC 2015-07-30 07:18:58
Writing application            : mkvmerge v6.6.0 ('The Edge Of The In Between') built on Dec  1 2013 17:55:00
Writing library                : libebml v1.3.0 + libmatroska v1.4.1
Attachment                     : Yes

Video
ID                             : 1
Format                         : AVC
Format/Info                    : Advanced Video Codec
Format profile                 : [email protected]
Format settings, CABAC         : Yes
Format settings, ReFrames      : 4 frames
Codec ID                       : V_MPEG4/ISO/AVC
Duration                       : 44mn 39s
Bit rate                       : 5 046 Kbps
Width                          : 1 920 pixels
Height                         : 1 080 pixels
Display aspect ratio           : 16:9
Frame rate mode                : Constant
Frame rate                     : 23.976 fps
Color space                    : YUV
Chroma subsampling             : 4:2:0
Bit depth                      : 8 bits
Scan type                      : Progressive
Bits/(Pixel*Frame)             : 0.101
Stream size                    : 1.57 GiB (91%)
Title                          : Mr.Robot.S01E06.Br4ve.Trave1er.asf.1080p.WEB-DL.DD5.1.H.264-RARBG
Language                       : English
Default                        : Yes
Forced                         : No
Color primaries                : BT.709
Transfer characteristics       : BT.709
Matrix coefficients            : BT.709

Audio
ID                             : 2
Format                         : AC-3
Format/Info                    : Audio Coding 3
Mode extension                 : CM (complete main)
Format settings, Endianness    : Big
Codec ID                       : A_AC3
Duration                       : 44mn 39s
Bit rate mode                  : Constant
Bit rate                       : 384 Kbps
Channel count                  : 6 channels
Channel positions              : Front: L C R, Side: L R, LFE
Sampling rate                  : 48.0 KHz
Bit depth                      : 16 bits
Compression mode               : Lossy
Stream size                    : 123 MiB (7%)
Title                          : Mr.Robot.S01E06.Br4ve.Trave1er.asf.1080p.WEB-DL.DD5.1.H.264-RARBG
Language                       : English
Default                        : Yes
Forced                         : No

Text
ID                             : 3
Format                         : UTF-8
Codec ID                       : S_TEXT/UTF8
Codec ID/Info                  : UTF-8 Plain Text
Title                          : English
Language                       : English
Default                        : No
Forced                         : No


eps1.6_v1ew-s0urce.flv :http://adf.ly/1MrnzX

Image

Code: Select all

General
Unique ID                      : 183834900490290547138629767549754050729 (0x8A4D506031176C239B357D3453F088A9)
Format                         : Matroska
Format version                 : Version 4 / Version 2
File size                      : 1.69 GiB
Duration                       : 44mn 58s
Overall bit rate               : 5 379 Kbps
Encoded date                   : UTC 2015-08-06 07:25:16
Writing application            : mkvmerge v6.6.0 ('The Edge Of The In Between') built on Dec  1 2013 17:55:00
Writing library                : libebml v1.3.0 + libmatroska v1.4.1
Attachment                     : Yes

Video
ID                             : 1
Format                         : AVC
Format/Info                    : Advanced Video Codec
Format profile                 : [email protected]
Format settings, CABAC         : Yes
Format settings, ReFrames      : 4 frames
Codec ID                       : V_MPEG4/ISO/AVC
Duration                       : 44mn 58s
Bit rate                       : 4 888 Kbps
Width                          : 1 920 pixels
Height                         : 1 080 pixels
Display aspect ratio           : 16:9
Frame rate mode                : Constant
Frame rate                     : 23.976 fps
Color space                    : YUV
Chroma subsampling             : 4:2:0
Bit depth                      : 8 bits
Scan type                      : Progressive
Bits/(Pixel*Frame)             : 0.098
Stream size                    : 1.54 GiB (91%)
Title                          : Mr.Robot.S01E07.v1ew.s0urce.flv.1080p.WEB-DL.DD5.1.H.264-RARBG
Language                       : English
Default                        : Yes
Forced                         : No
Color primaries                : BT.709
Transfer characteristics       : BT.709
Matrix coefficients            : BT.709

Audio
ID                             : 2
Format                         : AC-3
Format/Info                    : Audio Coding 3
Mode extension                 : CM (complete main)
Format settings, Endianness    : Big
Codec ID                       : A_AC3
Duration                       : 44mn 58s
Bit rate mode                  : Constant
Bit rate                       : 384 Kbps
Channel count                  : 6 channels
Channel positions              : Front: L C R, Side: L R, LFE
Sampling rate                  : 48.0 KHz
Bit depth                      : 16 bits
Compression mode               : Lossy
Stream size                    : 124 MiB (7%)
Title                          : Mr.Robot.S01E07.v1ew.s0urce.flv.1080p.WEB-DL.DD5.1.H.264-RARBG
Language                       : English
Default                        : Yes
Forced                         : No

Text
ID                             : 3
Format                         : UTF-8
Codec ID                       : S_TEXT/UTF8
Codec ID/Info                  : UTF-8 Plain Text
Title                          : English
Language                       : English
Default                        : No
Forced                         : No


eps1.7_wh1ter0se.m4v :http://adf.ly/1MroSW

Image

Code: Select all

General
Unique ID                      : 226014001926731102090923887959789303807 (0xAA08B6A270D29C3381AB22A40F6877FF)
Format                         : Matroska
Format version                 : Version 4 / Version 2
File size                      : 1.67 GiB
Duration                       : 45mn 7s
Overall bit rate               : 5 311 Kbps
Encoded date                   : UTC 2015-08-13 08:21:34
Writing application            : mkvmerge v6.6.0 ('The Edge Of The In Between') built on Dec  1 2013 17:55:00
Writing library                : libebml v1.3.0 + libmatroska v1.4.1
Attachment                     : Yes

Video
ID                             : 1
Format                         : AVC
Format/Info                    : Advanced Video Codec
Format profile                 : [email protected]
Format settings, CABAC         : Yes
Format settings, ReFrames      : 4 frames
Codec ID                       : V_MPEG4/ISO/AVC
Duration                       : 45mn 7s
Bit rate                       : 4 821 Kbps
Width                          : 1 920 pixels
Height                         : 1 080 pixels
Display aspect ratio           : 16:9
Frame rate mode                : Constant
Frame rate                     : 23.976 fps
Color space                    : YUV
Chroma subsampling             : 4:2:0
Bit depth                      : 8 bits
Scan type                      : Progressive
Bits/(Pixel*Frame)             : 0.097
Stream size                    : 1.52 GiB (91%)
Title                          : Mr.Robot.S01E08.wh1ter0se.1080p.WEB-DL.DD5.1.H.264-RARBG.m4v
Language                       : English
Default                        : Yes
Forced                         : No
Color primaries                : BT.709
Transfer characteristics       : BT.709
Matrix coefficients            : BT.709

Audio
ID                             : 2
Format                         : AC-3
Format/Info                    : Audio Coding 3
Mode extension                 : CM (complete main)
Format settings, Endianness    : Big
Codec ID                       : A_AC3
Duration                       : 45mn 7s
Bit rate mode                  : Constant
Bit rate                       : 384 Kbps
Channel count                  : 6 channels
Channel positions              : Front: L C R, Side: L R, LFE
Sampling rate                  : 48.0 KHz
Bit depth                      : 16 bits
Compression mode               : Lossy
Stream size                    : 124 MiB (7%)
Title                          : Mr.Robot.S01E08.wh1ter0se.1080p.WEB-DL.DD5.1.H.264-RARBG.m4v
Language                       : English
Default                        : Yes
Forced                         : No

Text
ID                             : 3
Format                         : UTF-8
Codec ID                       : S_TEXT/UTF8
Codec ID/Info                  : UTF-8 Plain Text
Title                          : English
Language                       : English
Default                        : No
Forced                         : No



eps1.8_m1rr0r1ng.qt :http://adf.ly/1NIW07

Image

Code: Select all

General
Unique ID                      : 182864533142269817117061716474128908262 (0x89926D925BDE2D8F94F07EB77F923FE6)
Format                         : Matroska
Format version                 : Version 4 / Version 2
File size                      : 1.89 GiB
Duration                       : 49mn 7s
Overall bit rate               : 5 502 Kbps
Encoded date                   : UTC 2015-08-20 18:38:18
Writing application            : mkvmerge v6.6.0 ('The Edge Of The In Between') built on Dec  1 2013 17:55:00
Writing library                : libebml v1.3.0 + libmatroska v1.4.1
Attachment                     : Yes

Video
ID                             : 1
Format                         : AVC
Format/Info                    : Advanced Video Codec
Format profile                 : [email protected]
Format settings, CABAC         : Yes
Format settings, ReFrames      : 4 frames
Codec ID                       : V_MPEG4/ISO/AVC
Duration                       : 49mn 7s
Bit rate                       : 5 009 Kbps
Width                          : 1 920 pixels
Height                         : 1 080 pixels
Display aspect ratio           : 16:9
Frame rate mode                : Constant
Frame rate                     : 23.976 fps
Color space                    : YUV
Chroma subsampling             : 4:2:0
Bit depth                      : 8 bits
Scan type                      : Progressive
Bits/(Pixel*Frame)             : 0.101
Stream size                    : 1.72 GiB (91%)
Title                          : Mr.Robot.S01E09.m1rr0r1ng.qt.WEB-DL.DD5.1.H.264-RARBG
Language                       : English
Default                        : Yes
Forced                         : No
Color primaries                : BT.709
Transfer characteristics       : BT.709
Matrix coefficients            : BT.709

Audio
ID                             : 2
Format                         : AC-3
Format/Info                    : Audio Coding 3
Mode extension                 : CM (complete main)
Format settings, Endianness    : Big
Codec ID                       : A_AC3
Duration                       : 49mn 7s
Bit rate mode                  : Constant
Bit rate                       : 384 Kbps
Channel count                  : 6 channels
Channel positions              : Front: L C R, Side: L R, LFE
Sampling rate                  : 48.0 KHz
Bit depth                      : 16 bits
Compression mode               : Lossy
Stream size                    : 135 MiB (7%)
Title                          : Mr.Robot.S01E09.m1rr0r1ng.qt.WEB-DL.DD5.1.H.264-RARBG
Language                       : English
Default                        : Yes
Forced                         : No

Text
ID                             : 3
Format                         : UTF-8
Codec ID                       : S_TEXT/UTF8
Codec ID/Info                  : UTF-8 Plain Text
Title                          : English
Language                       : English
Default                        : No
Forced                         : No


*Request for small size and another host link is applicable!
F**Ksociety!

Return to “Series”

Who is online

Users browsing this forum: No registered users and 1 guest